请选择 进入手机版 | 继续访问电脑版

VR社区

 找回密码
 立即注册
搜索
热搜: 电影 应用 资源
开启左侧

[3d电影字幕] 3d影视|[4K(超高清)自然纪录片]黄石国家公园的瀑布

[复制链接]
发表于 2018-4-3 16:25:20 | 显示全部楼层 |阅读模式
[4K(超高清)自然纪录片]黄石国家公园的瀑布 2016
[2160P/TS/28.61GB]+[1440P/MKV/8.96GB]
(片长 : 2小时41分钟)
1.png
上下瀑布是由黄石河水侵蚀质地较软的岩石形成的。峡谷瀑布区在8字形公路,两个圆相接处的右端。黄石河,它由黄石峡谷汹涌而出,贯穿整个黄石国家公园。黄石河将山脉切穿而创造了神奇的黄石大峡谷。在阳光下,两峡壁的颜色从橙黄过渡到橘红,仿佛是两条曲折的彩带。黄石河流经黄色的峡谷,形成黄石瀑布壮丽的景观。

General
Unique ID : 180525562191746098437568368644424449463 (0x87CFF5667F703B20B746579C0957BDB7)
Complete name : WATERFALLS OF YELLOWSTONE - 4K Ultra HD _Мастер5.mkv
Format : Matroska
Format version : Version 4 / Version 2
File size : 8.96 GiB
Duration : 2 h 41 min
Overall bit rate : 7927 kbps
Movie name : WATERFALLS OF YELLOWSTONE - 4K Ultra HD _Мастер5
Encoded date : UTC 2017-05-06 17:27:46
Writing application : mkvmerge v8.1.0 ('Psychedelic Postcard') 32bit
Writing library : libebml v1.3.1 + libmatroska v1.4.2

Video
ID : 1
Format : AVC
Format/Info : Advanced Video Codec
Format profile : High@L5
Format settings, CABAC : Yes
Format settings, ReFrames : 3 frames
Codec ID : V_MPEG4/ISO/AVC
Duration : 2 h 41 min
Bit rate : 7799 kbps
Width : 2560 pixels
Height : 1440 pixels
Display aspect ratio : 16:9
Frame rate mode : Constant
Frame rate : 24.000 FPS
Color space : YUV
Chroma subsampling : 4:2:0
Bit depth : 8 bits
Scan type : Progressive
Bits/(Pixel*Frame) : 0.088
Stream size : 8.81 GiB (98%)
Title : WATERFALLS OF YELLOWSTONE - 4K Ultra HD _Мастер5
Default : Yes
Forced : No
Color range : Limited
Color primaries : BT.709
Transfer characteristics : BT.709
Matrix coefficients : BT.709

Audio
ID : 2
Format : AAC
Format/Info : Advanced Audio Codec
Format profile : LC
Codec ID : A_AAC
Duration : 2 h 41 min
Bit rate : 126 kbps
Channel(s) : 2 channels
Channel positions : Front: L R
Sampling rate : 44.1 kHz
Frame rate : 43.066 FPS (1024 spf)
Compression mode : Lossy
Stream size : 145 MiB (2%)
Default : Yes
Forced : No
10.png

9.png

8.png

7.png

5.png

4.png

3.png

2.png



使用极速迅雷来高速下载!
播放器: Potplaye/MPC-HC/影音先锋

1440P 2KBT种子文件下载

下载地址:
游客,如果您要查看本帖隐藏内容请回复


2160P 4KBT种子文件下载
     下载地址:
游客,如果您要查看本帖隐藏内容请回复





11.png
6.png
人总喜欢别人骗自己,就是不喜欢自己骗自己。
发表于 2018-4-7 22:32:11 | 显示全部楼层
66666666666666
发表于 7 天前 来自手机 | 显示全部楼层
666666666666666663
发表于 7 天前 来自手机 | 显示全部楼层
咯4迷宫你好嘻嘻嘻休息
发表于 昨天 12:23 | 显示全部楼层
看一看怎么样
发表于 昨天 12:25 | 显示全部楼层
看一下怎么样
您需要登录后才可以回帖 登录 | 立即注册

本版积分规则

QQ|站点地图|手机版下载|小黑屋|VR社区  

GMT+8, 2018-4-23 11:48 , Processed in 0.187519 second(s), 44 queries .

Powered by Soupv! X3.2

© 2001-2016 Comsenz Inc.

快速回复 返回顶部 返回列表